faad error gain control not yet implemented Follansbee West Virginia

Address 117 Meadow Rd, Steubenville, OH 43953
Phone (740) 457-7973
Website Link
Hours

faad error gain control not yet implemented Follansbee, West Virginia

I converted a few files from .ra to .m4a using simply ffmpeg -i test1.ra test1.m4a or ffmpeg -i test1.ra test1.aac The conversions worked with no warnings VideoReDo, which I usually use to join .ts files into one program wouldn't load the files, and nothing else would either. Sign up for the SourceForge newsletter: I agree to receive quotes, newsletters and other information from sourceforge.net and its partners regarding IT services and products. here's the log from the besplit repair of the file...

AFAIK, for DVDs mp2 would be the only alternative? Please. with libfaad2 it halts at 00:24:30, which doesn't have any audible error when listening to the file, with realaac it halts at 00:3:21, which also doesn't have any audible error when So ac3 is the best to use.

Vorbis has better quality with roughly 1/10 of the complexity, as do plenty of other codecs. FAAD: error: Gain control not yet implemented, trying to resync! A: -0.8 (unknown) of 92.1 (01:32.0) 1.8% ERROR, too many payload bits read: 7732 > 5363. http://www.smartjog.comKey fingerprint 8D77134D20CC9220201FC5DB0AC9325C5C1ABAAA Phone: +33 1 49966312 _______________________________________________ ffmpeg-user mailing list [hidden email] http://lists.mplayerhq.hu/mailman/listinfo/ffmpeg-user vdmsss Reply | Threaded Open this post in threaded

Decoder is highly desirable for any codec that's in widespread use. build 5465) > Input #0, rm, from 'test1.ra': > Duration: 00:15:01.1, start: 0.000000, bitrate: 44 kb/s > Stream #0.0: Audio: cook, 44100 Hz, stereo, 44 kb/s > Output So, the viable alternatives to guarantee high compatibility remain mp2/ac3 for DVDs and mp3 for the rest. Reload to refresh your session. [Ffmpeg-user] errors in libfaac vdmsss vdm_sss at yahoo.co.uk Mon Jan 7 15:16:30 CET 2008 Previous message: [Ffmpeg-user] compiling x264 for ffmpeg in cygwin Next message: [Ffmpeg-user]

Board index The team • Delete all board cookies • All times are UTC - 5 hours © Copyright Ventis Media Inc. | Powered by phpBB Sitemap | Contact | Privacy See the ** GNU General Public License for more details. ** ** You should have received a copy of the GNU General Public License ** along with this program; if not, Bakker, Nero AG, http://www.nero.com ** ** This program is free software; you can redistribute it and/or modify ** it under the terms of the GNU General Public License as published by Every other program cuts the output file at 3:21, when the show was two hours long.

I am surprised that not only it appears to generate code that faad can't decompress ("not yet implemented" features), it also seems to breach the container/profile rules ("maximum It does seem serious. any ideas? Interesting fact is that if I first encode with libmp3lame and then with libfaac (full logs below), ffmpeg -i test1.ra test1.mp3 ; ffmpeg -i test1.mp3 test2.mp4 then the resulting files are

SourceForge Browse Enterprise Blog Deals Help Create Log In or Join Solution Centers Go Parallel Resources Newsletters Cloud Storage Providers Business VoIP Providers Call Center Providers Home Browse Freeware Advanced Audio However, the output is not complaint. PROGRAM N. 200 ========================================================================== Opening audio decoder: [faad] AAC (MPEG2/4 Advanced Audio Coding) FAAD: compressed input bitrate missing, assuming 128kbit/s! FAAD: error: Gain control not yet implemented, trying to resync!

And it gives no warning whatsoever; on this occasion my test file was a particularly simple 64kbit speech-only radio programme: I am now wondering how many of my m4a FAAD: Failed to decode frame: Gain control not yet implemented FAAD: error: Gain control not yet implemented, trying to resync! FAAD: error: Gain control not yet implemented, trying to resync! When I try to faad the resulting file, or also to ffmpeg-ed it again, I have several errors, as eg: Gain control not yet implemented

report with a link to a sample FAAD: error: Maximum number of scalefactor bands exceeded, trying to resync! the total length of the aac file is just under two hours. 3) i tried repairing the file with besplit, which identified 3 errors in the stream, but attempting the same build 5465) > Input #0, rm, from 'test1.ra': > Duration: 00:15:01.1, start: 0.000000, bitrate: 44 kb/s > Stream #0.0: Audio: cook, 44100 Hz, stereo, 44 kb/s > Output #0, mp3, to mplayer output.ts -aid 40 Mplayer chooses faad codec but it seems like the stream isn't 100% compatible to this plugin kind regards Newsy ----------------------------- MPlayer 1.0rc4-4.4.3 (C) 2000-2010 MPlayer Team mplayer:

You signed in with another tab or window. BeSplit v0.82 by DSPguru. -------------------------- Logging start : 12/10/05 , 19:15:13. Rich _______________________________________________ ffmpeg-user mailing list [hidden email] http://lists.mplayerhq.hu/mailman/listinfo/ffmpeg-user Rich Felker Reply | Threaded Open this post in threaded view ♦ ♦ | Report Content as Inappropriate ♦ ♦ Re: errors build 5465) > Input #0, rm, from 'test1.ra': > Duration: 00:15:01.1, start: 0.000000, bitrate: 44 kb/s > Stream #0.0: Audio: cook, 44100 Hz, stereo, 44 kb/s > Output #0, mp4, to

FAAD: error: Gain control not yet implemented, trying to resync! So is the lesson here simply: never to go straight from cook-decoding to faac-encoding? Terms Privacy Security Status Help You can't perform that action at this time. Personal Open source Business Explore Sign up Sign in Pricing Blog Support Search GitHub This repository Watch 2 Star 3 Fork 4 gypified/libfaad Code Issues 1 Pull requests 1 Projects

FAAD: Failed to decode frame: Gain control not yet implemented A: -0.4 (unknown) of 92.1 (01:32.0) 1.9% Previous message: [MPlayer-users] Dump sound with mplayer never exit on recent revision Next message: So, the viable alternatives to guarantee high > compatibility remain mp2/ac3 for DVDs and mp3 for the rest. And I have no better idea then > using the latest release of faac. > Well IMHO this is a serious issue, and maybe we could address it, faad/faac becomes more MvH Benjamin Larsson _______________________________________________ ffmpeg-user mailing list [hidden email] http://lists.mplayerhq.hu/mailman/listinfo/ffmpeg-user Baptiste Coudurier Reply | Threaded Open this post in threaded view ♦ ♦ | Report Content as Inappropriate ♦ ♦

FAAD: error: Gain control not yet implemented, trying to resync! TS_PARSE: COULDN'T SYNC2.1 (01:32.0) 1.8% FAAD: error: Maximum number of bitstream elements exceeded, trying to resync! So is the lesson here simply: never to go straight from cook-decoding to faac-encoding? FAAD: error: Gain control not yet implemented, trying to resync!

AAC is an important codec, and libfaac is the reference encoder, and the only one available in ffmpeg. FAAD: Failed to decode frame: Gain control not yet implemented FAAD: error: Gain control not yet implemented, trying to resync! C:\Program Files\BeSweet\BeSplit.exe -core( -logfile F:\HDTV\clapton-324ms.LOG -input F:\HDTV\clapton-324ms.aac -prefix F:\HDTV\clapton-324msFIX -type aac -a -fix ) [00:00:00:000] +------- BeSplit ----- [00:00:00:000] | Input : F:\HDTV\clapton-324ms.aac [00:00:00:000] | Output Prefix : F:\HDTV\clapton-324msFIX [00:00:00:000] +--------------------- I > converted a few files from .ra to .m4a using simply > > ffmpeg -i test1.ra test1.m4a or ffmpeg -i test1.ra test1.aac > > The conversions worked with no

IIRC the only formats _required_ to be supported for NTSC DVD are lpcm and ac3. build 5465) > Input #0, mov,mp4,m4a,3gp,3g2,mj2, from 'test1.m4a': > Duration: 00:15:00.8, start: 0.000000, bitrate: 66 kb/s > Stream #0.0(und): Audio: mpeg4aac, 44100 Hz, stereo > Output #0, mp3, to 'test1.mp3': > c -- _B A U S T E L L E N_ lesen! --->> _______________________________________________ ffmpeg-user mailing list [hidden email] http://lists.mplayerhq.hu/mailman/listinfo/ffmpeg-user Nico Sabbi Reply | Threaded Open this post in However, the output is not complaint.

You signed out in another tab or window. Let's resurect the thread about glueing code ? -- Baptiste COUDURIER GnuPG Key Id: 0x5C1ABAAA SMARTJOG S.A. You can get a sample of it here: http://www.megaupload.com/?d=TLAYE8OL I can play them with mplayer by choosing the Audiopid manually i.e. We should have > soon > a replacement for faad but faac should be LGPL and replacement is > scheduled...

If you use mp2 or dts your disc might not be playable on all players. When I try to faad the > resulting file, or also to ffmpeg-ed it again, I have several errors, > as eg: > > Gain control not yet implemented I converted a few files from .ra to .m4a using simply ffmpeg -i test1.ra test1.m4a or ffmpeg -i test1.ra test1.aac The conversions worked with no warnings whatsoever (full listings below), and FAAD: error: Gain control not yet implemented, trying to resync!

And I have no better idea >> then >> using the latest release of faac. >> Please notice that I am using CVS versions of faad and faac compiled