foobar2000 error parsing cuesheet Pearsall Texas

Binger Telcom Services specializes in designing, installing, moving and improving telecommunications and data systems. At Binger Telcom Services we are distinguished by our 30 years experience in providing Telecommunications and Data solutions for small to medium sized business' and our commitment to you by providing unparalleled service at competitive rates. Binger Telcom Services set out to become known as the company to turn to, for all your Communication and Data requirements. We understand that the telecommunications system is your most vital business tool. A system designed to meet your application installed and supported by competent, experienced personnel can improve your bottom line.You are offered that quality with leading edge Norstar, ESIC and Avaya equipment, expert design with peerless service and support from our thoroughly knowledgeable and skilled service technicians.Anything less could cost your business more than just service call charges, but real dollars in lost productivity and devaluation of your company image.We back up our commitment with a standard 36-Month Warranty on all Parts and Labor. We will provide Free Training for as long as you own the system. As a Value Added Reseller for the leading manufactures in the industry, we offer quality and value. We are a Full Service Telecommunications & Information Technology Solutions Provider, allowing us to provide ?leading edge? solutions to your business challenges.Our Product line includes Telephone Systems, Voicemail, Certified Network Infrastructure Cabling, Unified Messaging, VoIP (Voice over Internet Provider), Local and Long Distance Providers.

Address 6114 W Laguna Rd, San Antonio, TX 78223
Phone (210) 250-0051
Website Link
Hours

foobar2000 error parsing cuesheet Pearsall, Texas

DJ Jorg)"PERFORMER "Unknown Artist"INDEX 01 00:00:00TRACK 06 AUDIOTITLE "Life on Mars"PERFORMER "Unknown Artist"INDEX 00 10:19:00FILE "06 - Life on Mars.wav" WAVEINDEX 01 00:00:00TRACK 07 AUDIOTITLE "Liquid Sun"PERFORMER "Unknown Artist"INDEX 00 09:08:55FILE It can also be caused if your computer is recovered from a virus or adware/spyware attack or by an improper shutdown of the computer. Boom! J.

Boom! Hinweise Benachrichtigungen Alle anzeigen... Foobar2000 Error Parsing Cuesheet Error Codes are caused in one way or another by misconfigured system files in your windows operating system. Cale" INDEX 00 60:09:72 INDEX 01 06:11:33 TRACK 04 AUDIO TITLE "Changes" PERFORMER "J.

ape文件cue文件保持同名,cue面容易错行FILE "XXX.ape" WAVE没问题.用foobar2000打cue文件显示Unable to open item for playback (Error parsing cuesheet: unknown cuesheet item (line 1)):"D:\金属\Viking\Windir\Likferd(2003)[EAC-APE]\Likferd.cue"说明:foobar2000没问题,ape插件,使用打其ape+cue音频没问题,唯独张专辑打,面cue具体内容:PERFORMER "Windir"TITLE "Likferd"FILE "Likferd.ape" WAVE TRACK 01 AUDIO TITLE "Resurrection Of The Wild" PERFORMER "Windir" INDEX How to easily fix Foobar2000 Error Parsing Cuesheet error? DJ Jorg).wav" WAVETRACK 05 AUDIOTITLE "Cosmic Ascension (feat. Sign In Now Sign in to follow this Followers 1 Go To Topic Listing Computer based HiFi Recently Browsing 0 members No registered users viewing this page.

Here is a copy of the latest troublesome rip which indicated an error on line 23. Usually it is necessary to hand edit the results, as many track titles are way too long for use with cPlay. the usual metadata... And I have some more images made with EAC which give the same error.

J. I鈥檓 posting the rather lengthy actual cue sheets below 鈥 apologies for that but apparently I may not post files on this forum. 鈥淯nable to open item for playback (Error parsing Cue sheets were not designed to be playlists. #2 greynol, 8 Mai 2010 Chivvyp Expand Collapse New Member Registriert seit: 3 Februar 2010 Beitr盲ge: 4 Zustimmungen: 0 I thought cue Neuer als: Nur dieses Thema durchsuchen Nur dieses Forum durchsuchen Die Ergebnisse als Themen anzeigen Mehr...

This article contains information that shows you how to fix Foobar2000 Error Parsing Cuesheet both (manually) and (automatically) , In addition, this article will help you troubleshoot some common error messages artist, title, album, etc) is better stored in a "proper" audio file tag, be it a single image rip with embedded cue sheet or tracks ripped to individual files. This website should be used for informational purposes only. Once it happens it doesn't go away.

Cale" INDEX 00 74:23:08 INDEX 01 10:24:08 TRACK 06 AUDIO TITLE "If You're Ever In Oklahoma" PERFORMER "J. Chivvyp Expand Collapse New Member Registriert seit: 3 Februar 2010 Beitr盲ge: 4 Zustimmungen: 0 Hi, I'm burning cds through EAC with cue sheet. It's easy! Last Edit: 10 February, 2008, 07:36:56 PM by Fandango vasya pupkin Newbie Joined: 10 February, 2008 Posts: 1 Logged Banned fb2k fails to parse CUE from EAC Reply #4 – 10

The actual problem with the first one aren't the INDEX 00 lines but that there are FILE sections without a TRACK sub-section (note the indent of 2 and 4 spaces, it's and, when using album images, regain the possibitily to use cuesheets. This is an example of problamatic CUE created by EAC:Code: [Select]REM COMMENT "ExactAudioCopy v0.95b2"PERFORMER "Unknown Artist"TITLE "Dancing Galaxy"FILE "01 - Dancing Galaxy.wav" WAVETRACK 01 AUDIOTITLE "Dancing Galaxy"PERFORMER "Unknown Artist"INDEX 01 00:00:00TRACK What causes Foobar2000 Error Parsing Cuesheet error?

If you need to preserve the pre-gap information because you want to use fb2k to convert the whole image, then you must convert the non-compliant rip to a compliant single image J. There are two (2) ways to fix Foobar2000 Error Parsing Cuesheet Error: Advanced Computer User Solution (manual update): 1) Start your computer and log on as an administrator. 2) Click It occurs one out of 70 rips or so.

Many thanks for looking. 0 Share this post Link to post Share on other sites meninblack 聽聽 42 Moderator Moderator 42 22,482 posts Wigwam Info Turn Table: Systemdek IIx Tone Arm You may not be aware, but any visitor supports our site by just viewing ads. This corrupted system file will lead to the missing and wrongly linked information and files needed for the proper working of the application. I have one rip which might play 2 or 3 times then it errors and I can rerip and the process is repeatable.

Usually your error means that EAC found a subindex (like index 1 or 2) on a song or two, and listed it. Here are the two error messages I got today. foobar 恹溧弪 铠栳牦: "Unable to open item for playback (Error parsing cuesheet: invalid index list (line 20)): "G:\MP3\Scorpions_2010_Sting_In_The_Tail\Sting In The Tail.cue""埋邈 玎镨皴: 248 | 青疱汨耱. 29-01-2004 | 悟镳噔脲眍: 06:26 18-03-2010 | Angemeldet bleiben Digital-Inn Foren > MP3 [MPEG Layer III] - All bout it > EAC - Offizielles Support Forum > Exact Audio Copy - English > Style Digital-Inn - UI.X Sprache

The Foobar2000 Error Parsing Cuesheet error is the Hexadecimal format of the error caused. Nein, erstelle jetzt ein Benutzerkonto. foobar2000 does not support noncompliant cue sheets. Click here follow the steps to fix Foobar2000 Error Parsing Cuesheet and related errors.

It is blocking advertisements and possibly other essential functions in our site. It doesn't happen on all cue sheets but I don't see anything obviously different between the good and bad cue sheets. zuzu 袧芯胁懈褔芯泻 袙芯蟹褉邪褋褌: 32袨褌泻褍写邪: 小邪屑邪褉邪袪械锌褍褌邪褑懈褟: 1小 薪邪屑懈: 9 谢械褌 11 屑械褋褟褑械胁 小邪泄褌 袨褌胁械褌懈褌褜 褋 褑懈褌邪褌芯泄 panda » 14.01.2009, 12:15 褋锌械褉胁邪 褋谢芯卸懈 泻褍泄 胁 褌械谐 {code}褟 褌褍褌 写褍屑邪谢-写褍屑邪谢. 薪械 胁懈卸褍 褋屑褘褋谢邪 胁芯芯斜褖械 Why not create an actual playlist instead of misusing a cue sheet as one?

This code is used by the vendor to identify the error caused. FC2Ad 銆Benri-navi by myhurt 銆Template by FC2銉栥儹銈般伄銉嗐兂銉椼儸銉笺儓宸ユ埧

涓婅搴冨憡銇1銉舵湀浠ヤ笂鏇存柊銇仾銇勩儢銉偘銇〃绀恒仌銈屻仸銇勩伨銇欍傛柊銇椼亜瑷樹簨銈掓浉銇忋亾銇ㄣ仹搴冨憡銈掓秷銇涖伨銇欍 Startseite Foren Foren durchsuchen Themen mit aktuellen Beitr盲gen Medien Medien suchen Neue Medien Mitglieder Namhafte Mitglieder Derzeitige Besucher Letzte Aktivit盲ten 0 0 basic features: (repairs system freezing and rebooting issues , start-up customization , browser helper object management , program removal management , live updates , windows structure repair.) Recommended Solution Links: (1) This is because multifile cuesheets never were a proper standart.

J. Bang!"PERFORMER "Roxette"INDEX 01 00:00:00FILE "16 - Vulnerable.flac" WAVETRACK 16 AUDIOTITLE "Vulnerable"PERFORMER "Roxette"INDEX 01 00:00:00FILE "17 - She Doesn't Live Here Anymore.flac" WAVETRACK 17 AUDIOTITLE "She Doesn't Live Here Anymore"PERFORMER "Roxette"INDEX 01 It's a relief to know it's not me, it's foobar! Skip to main content ↑ ↓ Hydrogenaudio Forums 1 Hour 1 Day 1 Week 1 Month Forever Community Help Search Recent Posts Forum Terms of Service Wiki foobar2000 Forums Log

Is this indicating an error in INDEX 01 of TRACK 04?REM GENRE BluesREM DATE 1972REM DISCID A507450CREM COMMENT "ExactAudioCopy v0.99pb4"PERFORMER "J. When you rip, use the "create m3u playlist on extraction" option (in EAC options, tools tab) then drop the m3u file into Foobar.