ffmpeg error while encoding Lequire Oklahoma

Address 116 E Main St Ste C, Stigler, OK 74462
Phone (918) 967-8383
Website Link http://stiglerdigital.com
Hours

ffmpeg error while encoding Lequire, Oklahoma

Which day of the week is today? Two types of magnestism? Join them; it only takes a minute: Sign up Error while opening encoder for output stream #0.0 - maybe incorrect parameters such as bit_rate, rate, width or height up vote 3 Overwrite ? [y/N] y [buffer @ 0x9ce9eb0] w:1280 h:720 pixfmt:yuv420p [scale @ 0x9ce8f70] w:1280 h:720 fmt:yuv420p -> w:320 h:240 fmt:yuv420p flags:0x4 [libx264 @ 0x9ce9ef0] broken ffmpeg default settings detected [libx264 @

there is horizontal panning/sliding of frames and the colors are not accurate. Log in or register to post comments Comment #7 diricia CreditAttribution: diricia commented May 3, 2011 at 4:52pm I used the following switches for ffmpeg. !cmd_path -y -i !videofile -acodec aac How would you help a snapping turtle cross the road? Peregate Posts: 15Joined: Fri Nov 04, 2011 7:42 pm Top Re: Error while encoding file problem with audio normalizati by Claire » Wed Jan 09, 2013 9:58 am ok thanks

It didn't crash, just got stuck at 97.4%. What are Imperial officers wearing here? Browse other questions tagged audio video ffmpeg conversion or ask your own question. For example, the h263 decoder corresponds to the h263 and h263p encoders, for file formats it is even worse.

Below is output from a few ffmpeg commands. "ffmpeg -version": FFmpeg version SVN-r0.5.1-4:0.5.1-1ubuntu1.1, Copyright (c) 2000-2009 Fabrice Bellard, et al. Browse other questions tagged audio ffmpeg or ask your own question. Can't pause, cancel, or exit -- the buttons appear to work, but don't actually do anything.Tried in .34b again, single pass without normalization -- made it to 100%! ...and immediately crashed.Installed File: "1: THE TARGET" -> VTS_01_1.VOB ********************|GK_TITLESET|19:54:22.316 Info Max simultaneous conversions: 419:54:22.231 Info Don't log FFMpeg log events19:54:22.230 Info NTSC selected as output from settings.19:54:22.228 Info [x] 2-pass encoding19:54:22.227 Info [

FFMPEG reported the following output: FFmpeg version SVN-r25837, Copyright (c) 2000-2010 the FFmpeg developers built on Nov 28 2010 00:27:04 with gcc 4.1.2 20080704 (Red Hat 4.1.2-48) configuration: --enable-version3 --enable-libopencore-amrnb --enable-libopencore-amrwb The current version was developed from scratch in 2015. You can check the encode decode availability by inspecting the output array from PHPVideoToolkit::getFFmpegInfo(). [FFmpeg-user] Error while encoding UDP H.264 stream streamingguy sasidhar.nelapati at gmail.com Sun May 20 08:07:34 CEST 2012 Previous message: [FFmpeg-user] Unsubscribe Next message: [FFmpeg-user] FFmpeg 2-pass libx264 encoding with php?

Messages sorted by: [ date ] [ thread ] [ subject ] [ author ] More information about the ffmpeg-user mailing list current community chat Stack Overflow Meta Stack Overflow your Output #0, mp4, to 'video.mp4': Metadata: encoder : VirtualDubMod 1.5.10.2 (build 2540/release) Stream #0:0: Video: h264, none, q=2-31, 128 kb/s, SAR 1:1 DAR 0:0, 23.98 fps Metadata: encoder : Lavc57.3.100 libx264 How? Actually means 'same quantizers'!

That would be nice to have gone. Related 0ffmpeg, conversion to flv: how to get better quality?27ffmpeg: Combine/merge multiple mp4 videos - not working0Which value exactly tells the video stream bit rate in ffmpeg output?8Error while opening encoder One of the features is broken. :/ permalinkembedsaveparentreportgive goldreply[–]lm794[S] 0 points1 point2 points 20 days ago(2 children)Yes, I'm now on the latest version. Just to be sure, are you running the latest release? (2.2) This bug is cause by a misplace of some temporary files.

Security Patch SUPEE-8788 - Possible Problems? Primary track on all (4) MKV files is ac3 6ch. Risk Management in Single engined piston aircraft flight more hot questions question feed lang-php about us tour help blog chat data legal privacy policy work here advertising info mobile contact us You can check the encode decode availability by inspecting the output array from PHPVideoToolkit::getFFmpegInfo()." - Share the outcome with your question. –hakre Dec 14 '12 at 10:42 1 Also, can

I should be able to fix it... Join them; it only takes a minute: Sign up Here's how it works: Anybody can ask a question Anybody can answer The best answers are voted up and rise to the Only the last video has a second track, vorbis 2ch. All rights reserved.REDDIT and the ALIEN Logo are registered trademarks of reddit inc.πRendered by PID 26076 on app-842 at 2016-10-15 16:32:10.732419+00:00 running 57dd115 country code: DE.

I have added it to the bug report - that is a good test you did. Why are Spanish adverbs formed using the feminine? Removing elements from an array that are in another array What are "desires of the flesh"? I wonder...

Has anyone found a solution ?! Generate a 6 character string from a 15 character alphabet Why is absolute zero unattainable? Unusual keyboard in a picture My CEO wants permanent access to every employee's emails. asked 1 year ago viewed 413 times Related 4mix audio with h264 mp4 video with ffmpeg0ffmpeg video with watermark and subtitle at same time3Problems with frame rate on video conversion using

i even specify which bin to use /root/bin/ffmpeg. share|improve this answer answered Oct 11 '12 at 22:36 LordNeckbeard 21.3k45872 Thanks, once we updated ffmpeg, it all started falling into place –Josh Oct 12 '12 at 18:33 add Spradling | Music: Steve Ball Duration: 00:00:30.09, start: 8.000000, bitrate: 6977 kb/s Stream #0.0(eng): Audio: wmav2, 44100 Hz, 2 channels, s16, 192 kb/s Stream #0.1(eng): Video: vc1, yuv420p, 1280x720, 5942 kb/s, Welcome to Doom9's Forum, THE in-place to be for everyone interested in DVD conversion.

New tech, old clothes A better way to evaluate a certain determinant Can Dandelion defeat you? I let it sit there 2 hours before touching anything, in case the progress indicator was wrong. Two types of magnestism? House of Santa Claus Two types of magnestism?