fix cue file error Mountain Lakes New Jersey

Address 52 Knollwood Ave, Madison, NJ 07940
Phone (973) 236-1100
Website Link http://compusolve-us.com
Hours

fix cue file error Mountain Lakes, New Jersey

Yes, my password is: Forgot your password? Main Sections Technology News Reviews Features Product Finder Downloads Drivers Community TechSpot Forums Today's Posts Ask a Question News & Comments Useful Resources Best of the Best Must Reads Trending Now Schließen Ja, ich möchte sie behalten Rückgängig machen Schließen Dieses Video ist nicht verfügbar. http://www.foobar2000.org/ http://www.foobar2000.org/encoderpack Apesbrain, Apr 8, 2014 #17 tinpanalley Active Member Thread Starter Location: Paris, France Foobar is what I use to listen to music on my PC.

Thks Anonymous thank you it worked for me anonymous34 you dont save it as a .txt you just change the bar from text format to all files Anonymous I did all the cue sheet refers to the data track, but the track wasn't ripped)Removing a Unicode BOM (to help apps that don't recognize it)A few mistakes to watch for:First index for a I had no idea it could split CUE files.Click to expand... Why AccurateRip database lookups sometimes fail Sometimes, CUETools can't find your ripped CD in the AccurateRip database, even though an entry for it does exist.

You can also right-click on the editor screen and choose option to create a new name, value for the file extension. 7. The syntax is not very complicated. I wouldn't worry about deterioration of data sitting on a drive, regardless of the type of drive. Known issues On discs with multiple entries, Repair function needs to display a window asking confirmation and presenting you with a choice of available repair targets.

and on attached screenshots on github, first cuesheet with invalid referenced file was created by foobar under wine - "Boris Kovač..." mp3 file was created and in the accompanied cuesheet it From here, you can modify and delete any registry entries of Windows system. Some systems use RAW for paging data. Data to be written 0 MB ( 307,200 bytes ) Space available on the disc 656 MB (688,281,600 bytes ).

Sprache: Deutsch Herkunft der Inhalte: Deutschland Eingeschränkter Modus: Aus Verlauf Hilfe Wird geladen... I'll attempt a brief HOWTO: CUETools is a multi-purpose utility for verifying a rip against online databases, or for transforming a .cue file, a full-CD rip, or both. Paste this into the file: FILE "gameiso.bin" BINARY
TRACK 01 MODE1/2352
INDEX 01 00:00:00 Make sure you edit the text gameiso.bin to the exact name of your bin file. 5. I am attaching the log file from the rip.

However, if you have an EAC log made by a recent version of EAC, CUETools can get the data track length from it. I was facing some File extension problems for a long time...literally faded up...then found File extension fix application from this site and error disappear... How to Fix/Open Ihis File Extension Download and Install Windows CUE File Fixer. Oh, and mount the .cue file not the .bin 🙂 CD Thanks Man!

Your CUETools window should look something like this: Last edited: Apr 7, 2014 Apesbrain, Apr 7, 2014 #9 tinpanalley Active Member Thread Starter Location: Paris, France Hmm.. This is how I saved it. *.txt >>> /you see this in the save box Delete that and insert "gameiso.cue" Save it, and you have your new image file. Open the FLAC in a tag editor like mp3tag and see if there is an embedded CUE or some other strange tags. Now any program that can read CD-rom ISOs (nero, alcohol, etc) should be ready to read the file.

Back then, drives were also more likely to do weird things with caching and seeking, which could lead to errors, and is the reason why EAC has features to work around Similarly, if you rip a CD which has HTOA, but don't save the HTOA to a file, and then you try verify it without a .cue sheet, your files look like The unique feature of CUETools AccurateRip verification is offset detection. Please follow the instructions as below to edit the file extensions in the Windows registry: 1.

PERFORMER "Performer" TITLE "Title" FILE "Album.flac" WAVE TRACK 01 AUDIO TITLE "Song1" INDEX 01 00:00:00 TRACK 02 AUDIO TITLE "Song2" INDEX 01 02:54:46 ...etc etc etc tinpanalley, Apr 7, 2014 Rip to a CUE file and and single WAV. Ham Sandwich, Apr 7, 2014 #4 tinpanalley Active Member Thread Starter Location: Paris, France Ham Sandwich said: ↑ Try using CUETools instead. So I would rename mine to FILE "OnlineGame.bin" BINARY.4.

Ubershank likes this. I tried converting the .bin to .ISO but I get an error with MagicISO along the lines that it "Can't find the file, or file isn't CD Image file" I'm worried I just used Exact Audio Copy to rip a random CD to cue sheet plus FLAC image and then split it back to the original tracks using CUETools. Try instructions above and see what happens with your 24-bit file.

It's like one of the old MS-DOS command line programs there used to be 20 years ago where you'd get all the extensions and command line options but no instructions as Cue files or cue sheets are first developed by CDRWIN, and then recognized by many CD playback and editing programs. Therefore, the rip must contain not just all audio tracks, but also: Info in a .cue sheet and/or .log file about the presence and duration of any data tracks. anything imaginable.

track 01's "pregap" or "index 00" portion)—or just the actual HTOA in an audio file. Applications are assigned to a file extension for opening it. The "Go" button performs the action. TechSpot Account Sign up for free, it takes 30 seconds.

This is the best way to do it, it's a common error that authors of these files do not rename the .cue folder to what it's supposed to be renamed to. CueTools is more robust in its handling of CUE file formats. Double click to open your New Text Document.txt 4. Dee Worked like a charm on Mac; was able to play a bin video file in VLC after creating the cue file this way, whereas previously VLC did nothing.

Much better than Medieval. Content is available under Public Domain unless otherwise noted.