ffmpeg error setting profile baseline Lock Springs Missouri

Address 1553 Bryan St, Chillicothe, MO 64601
Phone (660) 973-2839
Website Link
Hours

ffmpeg error setting profile baseline Lock Springs, Missouri

Basically, I don't want ffmpeg to touch any of the data other than the tag that says what profile and level it is. Also it is incompatible with lossless encoding. How do I explain that this is a terrible idea? for help frame= 37 fps= 0 q=0.0 size= 0kB time=00:00:00.00 bitrate= 0.0kbits frame= 44 fps= 43 q=31.0 size= 1kB time=00:00:00.04 bitrate= 176.8kbit frame= 54 fps= 34 q=28.0 size= 7kB time=00:00:00.44 bitrate=

need book id, written before 1996, it's about a teleport company that sends students learning to become colonists to another world (KevinC's) Triangular DeciDigits Sequence How do I say "Thank you, How? Watching H.264 (and other) videos using CUDA/D... share|improve this answer edited Mar 11 '13 at 8:17 answered Mar 11 '13 at 8:06 slhck 125k38315362 1 That worked well.

A better way to evaluate a certain determinant Is the NHS wrong about passwords? asked 2 years ago viewed 359 times active 2 years ago Related 1Copying 2YUV Video Streams in FFmpeg1ffmpeg not adding all images when creating video1Zoom video using ffmpeg commands8ffmpeg - Create They are needed only for the video filter section. Why germinate seeds outside of soil?

ffprobe gives segmentation fault on the input video –89n3ur0n Jul 10 '15 at 18:06 | show 8 more comments 1 Answer 1 active oldest votes up vote 1 down vote accepted How to get this substring on bash script? Try setting the -crf option to influence the constant quality parameter. Ubuntu Logo, Ubuntu and Canonical © Canonical Ltd.

more stack exchange communities company blog Stack Exchange Inbox Reputation and Badges sign up log in tour help Tour Start here for a quick overview of the site Help Center Detailed ffmpeg -i input.mp4 -vcodec x264 -vprofile high -vlevel 4.0 -acodec copy output.mp4 –Sam Mar 13 '13 at 6:47 Yes, the -v options are aliases of the :v ones. User contributions on this site are licensed under the Creative Commons Attribution Share Alike 4.0 International License. For example: ffmpeg -i input.mp4 -c:v libx264 -profile:v high -level:v 4.0 -c:a copy output.mp4 Here we've just copied the audio stream since it won't be affected.

Can an ATCo refuse to give service to an aircraft based on moral grounds? If you do not get this please let me know, how to post complete log cat error while replying? –Gururaj Jan 7 '14 at 11:55 Where exactly are you How? And what about "double-click"?

Why would a password requirement prohibit a number in the last character? I mean, would it give any error for some videos? Best Regards, Kai ViMP Support Team 14.12.2015 13:45 Message #20719 Tomatenbiss Posts: 4 Thank you very much! 14.12.2015 13:47 Index > Technical Questions > Transcoding fails - baseline profile doesn't If you don't have these, you can use the built-in aac encoder with the options -c:a aac -strict -2.

Last edited by FakeOutdoorsman; January 5th, 2013 at 11:45 PM. Out of interest, would the following command have achieved the same thing? [FFmpeg-user] x264 baseline profile error Scott Freeman scottf at tvw.org Wed Apr 11 22:55:48 CEST 2012 Previous message: [FFmpeg-user] undefined symbols when linking with ffmpeg code Next message: [FFmpeg-user] x264 baseline How to decrypt a broken S/MIME message sent by Outlook?

more hot questions question feed about us tour help blog chat data legal privacy policy work here advertising info mobile contact us feedback Technology Life / Arts Culture / Recreation Science You're probably making a lossless output with libx264. Adv Reply January 4th, 2013 #3 mc4man View Profile View Forum Posts Private Message . That'd return an error: Input #0, mov,mp4,m4a,3gp,3g2,mj2, from '1/25359.mp4': Metadata: major_brand : isom minor_version : 512 compatible_brands: isomiso2avc1mp41 encoder : Lavf56.40.101 Duration: 00:00:06.08, start: 0.000000, bitrate: 1059 kb/s Stream #0:0(und): Video:

Quote 23rd Jan 201317:02 #8 poisondeathray View Profile View Forum Posts Private Message Member Join Date : Sep 2007 Location : Canada Originally Posted by wotdefcuk Is there a way And of course the choice of video quality (-crf) or video bitrate (-b:v instead of -crf) is up to you as well. Accessed from ​http://ffmpeg.zeranoe.com/builds/win32/static/ffmpeg-git-276f43b-win32-static.7z F:\Formula One\Week XII - Spa-Francorchamps - 28.08.2011>ffmpeg -i "Formula_1_ -_2011_The_Belgian_Grand_Prix.flv" -s hd480 -vcodec libx264 -acodec copy -coder 0 "F:\Formula One\Week XII - Spa-Francorchamps - 28.08.2011\F1.Test.mp4" ffmpeg version N-32071-g276f43b, Browse other questions tagged video ffmpeg converter codec or ask your own question.

Tango Icons © Tango Desktop Project. New tech, old clothes Digital Diversity Is it appropriate to tell my coworker my mom passed away? Here is my string and debug: -------------- ffmpeg -f dshow -r 29.97 -i video="Digital Rapids DRC-500 Video":audio="Digital Rapids DRC-500 Audio" -s 400x300 -r 30000/1001 -b:v 350k -vcodec libx264 -vprofile baseline -acodec Not the answer you're looking for?

Does that mean I have to change some ViMP code or is there any kind of fix? If using a -profile:v you need to use a compatible -pix_fmt in command. (seems atm totem support goes to 'high' level* Adv Reply Quick Navigation Multimedia Software Top Is that possible or is it going to set all of the values (nitrate, framerate etc) to preset values? –Sam Jul 24 '13 at 10:38 1 I just stumbled upon Why does argv include the program name?

Output #0, ipod, to 'test.m4v': Stream #0.0: Video: libx264, yuv420p, 320x136 [SAR 1:1 DAR 40:17], q=2-31, 2 00 kb/s, 90k tbn, 23.98 tbc Stream #0.1: Audio: aac, 48000 Hz, stereo, s16, Is intelligence the "natural" product of evolution? Output to h.264 video 2. Not the answer you're looking for?

It's the only pixel format supported. –Mulvya Jun 22 at 14:05 add a comment| Your Answer draft saved draft discarded Sign up or log in Sign up using Google Sign Quote 23rd Jan 201316:52 #7 wotdefcuk View Profile View Forum Posts Private Message Member Join Date : Jan 2013 Location : USA General Complete name : D:\Video.mp4 Format : MPEG-4 vBulletin ©2000 - 2016, Jelsoft Enterprises Ltd. up vote 5 down vote favorite 6 I have a movie (m4v/h.264/AAC) which plays fine on my Mac but I recently discovered that it wont play on my Apple TV3.

Join them; it only takes a minute: Sign up ffmpeg convert from H.264 (High 4:4:4 Profile) to H.264 (Main Profile) up vote 2 down vote favorite How can I convert a Having an Issue With Posting ? comment:6 Changed 5 years ago by patronanejo As a practical matter, would it be insufficient to have ffmpeg pass -coder 0 to x264?