ffmpeg error while opening codec for output stream Long Green Maryland

Fishputer Services, LLC is a small start-up computer service company helping the Baltimore and Columbia areas get more out of their technology.  We pride ourselves on providing honest and affordable service with a strong focus on customer satisfaction.  

Address Halethorpe, MD 21227
Phone (410) 818-6293
Website Link
Hours

ffmpeg error while opening codec for output stream Long Green, Maryland

more stack exchange communities company blog Stack Exchange Inbox Reputation and Badges sign up log in tour help Tour Start here for a quick overview of the site Help Center Detailed And when I see a error message, I think that are a bug and not a case for the supporter forum! But if I manually used this command then its working /usr/local/bin/ffmpeg -i '/home/public_html/files/video_1355440448.m4v' -s '640x360' -sameq -ab '64k' -ar '44100' -f 'flv' -y /home/public_html/files/video_1355440448.flv ffmpeg share|improve this question edited Dec 14 Or ffmpeg itself..??

configuration: --extra-version=4:0.5.1-1ubuntu1.1 --prefix=/usr --enable-avfilter --enable-avfilter-lavf --enable-vdpau --enable-bzlib --enable-libgsm --enable-libschroedinger --enable-libspeex --enable-libtheora --enable-libvorbis --enable-pthreads --enable-zlib --disable-stripping --disable-vhook --enable-runtime-cpudetect --enable-gpl --enable-postproc --enable-swscale --enable-x11grab --enable-libdc1394 --enable-shared --disable-static libavutil 49.15. 0 / 49.15. 0 libavcodec I have tried presets that reference baseline with the same results. What I want is to re-encode the video that keep the original quality. asked 11 months ago viewed 2800 times active 11 months ago Related 2Troubleshooting “stream 0 codec frame rate differs from container frame rate” when splitting AVI in ffmpeg0ffmpeg error while segmenting6Using

So tweaking the CRF value doesn't affect the bitrate? –Happy Face Oct 26 '15 at 18:56 | show 1 more comment Your Answer draft saved draft discarded Sign up or Output #0, flv, to 'rtmp://1.1.1.1:1935/live/test': Stream #0:0: Video: h264, none, q=2-31, 128 kb/s, SAR 1:1 DAR 0:0, 25 fps Metadata: encoder : Lavc56.32.100 nvenc Stream #0:1(ita): Audio: aac, 0 channels, 128 The recorded FLV files were using Nelly Moser audio codec (8000 Hz, mono), and after recomressing audio I was able to get an MP4 file: Reply With Quote 12-14-2010,07:13 PM #4 The FLV file recorded from cam4 used Nelly Moser audio codec.

Forum FAQ Calendar Forum Actions Mark Forums Read Quick Links View Site Leaders Forum Applian Technologies Software Replay Media Catcher Error while opening codec for output stream #0.1 - maybe incorrect Output #0, mp4, to 'video.mp4': Metadata: encoder : VirtualDubMod 1.5.10.2 (build 2540/release) Stream #0:0: Video: h264, none, q=2-31, 128 kb/s, SAR 1:1 DAR 0:0, 23.98 fps Metadata: encoder : Lavc57.3.100 libx264 Here is the specific error message I am receiving when trying to convert an flv to and mp4: Video conversion failed for preset html5_mp4. I have tried both padding options with the same results.

To start viewing messages, select the forum that you want to visit from the selection below. Log in or register to post comments Comment #15 kourosh.afsari CreditAttribution: kourosh.afsari commented May 4, 2012 at 6:42am Hi Jorrit, Thanks for your reply. Anyway, answer updated. –LordNeckbeard Oct 26 '15 at 18:22 Hmm.. Playstation 3 (MP4 H.264; 29.97; 720x480; AAC)" will convert SOME Cam4 streams without any problems and you can watch the converted file on your TV using PS3 media server.

I want to convert a .avi format video to "video=h.264/.mp4, audio=.mp3" video. you use adpcm_swf audio and yuv420p video The answer it's very simple you need to put copy your audio codec ... You can get more information on this from the user guide: http://www.applian.com/replay-media-...4.php#settings Reply With Quote 12-14-2010,12:29 AM #3 stream-recorder.com View Profile View Forum Posts Private Message Visit Homepage Audio/Video Stream Recording Is there a role with more responsibility?

Here is the code for a failed version, any ideas? Queued for conversion Starting conversion with arguments: -y -i "d:\My Documents\My Streaming Media\Free Web Camblahblah.flv" -ss 0.00 -vcodec libx264 -r Output for file "/home/public_html/files/video_1355472099.avi" was found, but the file contained no data. Best Regards, Jeff Lenney Technical Support Applian Technologies, Inc. How do investigators always know the logged flight time of the pilots?

House of Santa Claus Can I buy my plane ticket to exit the US to Mexico? For example: When I used and the output encoding messages show me this and working well : [h624 @ 0x874e4a0] missing picture in access unit93 bitrate=1034.4kbits/s Last message repeated 1163 times5974kB Here is the code for a failed version, any ideas? Queued for conversion Starting conversion with arguments: -y -i "d:\My Documents\My Streaming Media\Free Web Camblahblah.flv" -ss 0.00 -vcodec libx264 -r You can also try to not use 2-pass encoding.

Converting - configuration: --enable-memalign-hack --enable-postproc --enable-gpl --enable-libfaac --enable-libfaad --enable-libgsm --enable-libmp3lame --enable-libvorbis --enable-libtheora --enable-libx264 --enable-libxvid --disable-ffserver --enable-avisynth --enable-pthreads Converting - libavutil 50. 3. 0 / 50. 3. 0 Converting - libavcodec 52.27. ffmpeg -i input -map 0:v -c:v libx264 -crf 18 video.mp4 -map 0:a -c:a libmp3lame -b:a 192k audio.mp3 "Anyway, could you pls add a aac example together?" ffmpeg -i input -c:v libx264 BUT for some reason others fail. How much interest should I pay on a loan from a friend?

The cause Your command is using two rate control methods: -qp and -b:v. frame dropped! ----------- Thanks for any help someone can provide. How? Does chilli get milder with cooking?

FFmpeg reports the error to be "Error while opening encoder for output stream #0.0 - maybe incorrect parameters such as bit_rate, rate, width or height". /usr/bin/ffmpeg -i '/public_html/drupal/sites/default/files/videos/original/MVI_0572.AVI' -strict experimental -vcodec xps June 2015 cmd line ^ Damian June 2015 Can you provide a link to download the video in question, to see if we can reproduce this issue? The error is with the video codec of the input file. a bullet shot into a suspended block What are Imperial officers wearing here?

Oldest first Newest first Threaded Comments only Change History (5) comment:1 Changed 3 years ago by cehoyos Component changed from FFmpeg to undetermined Priority changed from critical to normal Please provide current community chat Stack Overflow Meta Stack Overflow your communities Sign up or log in to customize your list. I am trying to record Cam4 streams, which are flv files. See my example with video mpeg4,yuv420p and audio ac3 ...

Also is need to use : -acodec copy -threads 12 If don't use this you will have one error. Is there a place in academia for someone who compulsively solves every problem on their own? I now understand that the module has presets and ffmpeg has its own presets as well!